<svg xml:space="preserve" version="1.1" style="shape-rendering:geometricPrecision; text-rendering:geometricPrecision; image-rendering:optimizeQuality; fill-rule:evenodd; clip-rule:evenodd" id="svg68" sodipodi:docname="fleetson-logoi.svg" inkscape:version="1.4.2 (f4327f4, 2025-05-13)" xmlns:inkscape="http://www.inkscape.org/namespaces/inkscape" xmlns:sodipodi="http://sodipodi.sourceforge.net/DTD/sodipodi-0.dtd" xmlns="http://www.w3.org/2000/svg" xmlns:svg="http://www.w3.org/2000/svg" viewBox="4489.72 6413.2 13270.35 2002.68"><sodipodi:namedview id="namedview68" pagecolor="#ffffff" bordercolor="#000000" borderopacity="0.25" inkscape:showpageshadow="2" inkscape:pageopacity="0.0" inkscape:pagecheckerboard="0" inkscape:deskcolor="#d1d1d1" inkscape:document-units="mm" inkscape:zoom="0.72604517" inkscape:cx="397.3582" inkscape:cy="561.25984" inkscape:window-width="1920" inkscape:window-height="1017" inkscape:window-x="-8" inkscape:window-y="-8" inkscape:window-maximized="1" inkscape:current-layer="Layer_x0020_1"/>
 <defs id="defs46">
  <font id="FontID3" horiz-adv-x="722" font-variant="normal" style="fill-rule:nonzero" font-weight="700">
	<font-face font-family="Arial" id="font-face1">
		<font-face-src>
			<font-face-name name="Arial Bold"/>
		</font-face-src>
	</font-face>
   <missing-glyph id="missing-glyph1"><path d="M0 0z" id="path1"/></missing-glyph>
   <glyph unicode="." horiz-adv-x="277" d="M72.012 0l0 137.004 136.978 0 0 -1.37004e+002 -1.36978e+002 0z" id="glyph1"/>
   <glyph unicode="e" horiz-adv-x="556" d="M371.991 165.003l137.004 -2.30075e+001c-1.79896e+001,-4.9992e+001 -4.59884e+001,-8.79998e+001 -8.29819e+001,-1.13997e+002 -3.80078e+001,-2.70112e+001 -8.60247e+001,-4.00096e+001 -1.4301e+002,-4.00096e+001 -9.00016e+001,0 -1.56996e+002,30.0005 -1.99995e+002,89.014 -3.40042e+001,47.0026 -5.10062e+001,105.989 -5.10062e+001,178.001 0,85.998 21.9933,154.006 66.9941,201.996 45.0008,49.0044 102.012,72.9995 171.008,72.9995 77.0031,0 137.992,-2.50093e+001 182.005,-7.59889e+001 45.0008,-5.10062e+001 65.9798,-1.29024e+002 63.978,-2.33999e+002l-3.43992e+002 0c1.01425,-4.10239e+001 12.0109,-7.29995e+001 34.0042,-9.50195e+001 21.0057,-2.29808e+001 47.0026,-3.40042e+001 79.005,-3.40042e+001 21.0057,0 38.9954,6.00544 53.9956,17.0021 15.0003,12.0109 25.9969,31.0148 32.9899,57.0117zm8.00726 139.006c-9.87562e-001,38.9954 -1.09966e+001,69.9835 -3.09881e+001,90.0016 -1.90039e+001,20.979 -4.2999e+001,30.9881 -7.09977e+001,30.9881 -3.00005e+001,0 -5.50099e+001,-1.09966e+001 -7.40138e+001,-3.20023e+001 -1.99915e+001,-2.19933e+001 -3.00005e+001,-5.19938e+001 -2.89863e+001,-8.89873e+001l204.986 0z" id="glyph2"/>
   <glyph unicode="g" horiz-adv-x="610" d="M58.9868 -3.40042e+001l157.022 -1.90039e+001c2.00181,-1.79896e+001 7.98057,-3.09881e+001 17.9896,-3.79811e+001 12.9985,-1.00091e+001 32.9899,-1.40127e+001 60.9886,-1.40127e+001 36.006,0 63.0171,4.99119 81.0068,16.0145 12.0109,6.99301 21.0057,17.9896 27.0112,33.9775 4.99119,12.0109 6.99301,33.0166 6.99301,63.0171l0 75.9889c-4.09972e+001,-5.59974e+001 -9.2991e+001,-8.39962e+001 -1.56008e+002,-8.39962e+001 -6.89959e+001,0 -1.23979e+002,29.013 -1.65003e+002,87.9998 -3.19757e+001,47.0026 -4.79902e+001,105.002 -4.79902e+001,173.998 0,87.0122 21.0057,154.006 62.9904,199.007 42.0114,45.9884 94.0052,68.9959 156.008,68.9959 64.0047,0 117.013,-2.79987e+001 158.01,-8.39962e+001l0 72.9995 128.997 0 0 -4.65996e+002c0,-6.10153e+001 -4.99119e+000,-1.07004e+002 -1.50003e+001,-1.37004e+002 -1.00091e+001,-3.00005e+001 -2.50093e+001,-5.39956e+001 -4.2999e+001,-7.09977e+001 -1.80163e+001,-1.80163e+001 -4.20114e+001,-3.10148e+001 -7.29995e+001,-4.09972e+001 -3.00005e+001,-1.00091e+001 -6.89959e+001,-1.40127e+001 -1.15011e+002,-1.40127e+001 -8.79998e+001,0 -1.50003e+002,15.0003 -1.86996e+002,45.0008 -3.69935e+001,30.0005 -5.50099e+001,68.0083 -5.50099e+001,113.997 0,5.01788 0,10.0091 0,17.0021zm123.018 304.009c0,-5.50099e+001 9.98238,-9.49928e+001 32.0023,-1.21016e+002 21.0057,-2.49827e+001 47.0026,-3.79811e+001 77.9907,-3.79811e+001 34.0042,0 62.0029,12.9985 85.0104,38.9954 23.9951,25.9969 34.9917,64.9923 34.9917,116.986 0,53.0081 -1.09966e+001,93.0177 -3.29899e+001,119.015 -2.202e+001,25.9969 -5.00187e+001,38.9954 -8.40228e+001,38.9954 -3.29899e+001,0 -5.99744e+001,-1.20109e+001 -8.09801e+001,-3.80078e+001 -2.202e+001,-2.59969e+001 -3.20023e+001,-6.49923e+001 -3.20023e+001,-1.16986e+002z" id="glyph3"/>
   <glyph unicode="h" horiz-adv-x="610" d="M208.002 716.009l0 -2.63012e+002c45.0008,51.0062 98.0089,77.0031 158.997,77.0031 32.0023,0 60.0011,-6.00544e+000 85.998,-1.70021e+001 25.0093,-1.20109e+001 44.0132,-2.70112e+001 57.0117,-4.50008e+001 12.9985,-1.79896e+001 21.9933,-3.89954e+001 25.9969,-6.09886e+001 4.99119,-2.202e+001 6.99301,-5.59974e+001 6.99301,-1.03e+002l0 -3.04009e+002 -1.37004e+002 0 0 274.008c0,53.9956 -2.00181e+000,88.9873 -8.00726e+000,103 -4.99119e+000,15.0003 -1.3986e+001,26.9845 -2.69845e+001,34.9917 -1.29985e+001,8.99482 -3.00005e+001,12.9985 -4.9992e+001,12.9985 -2.202e+001,0 -4.2999e+001,-4.99119e+000 -6.10153e+001,-1.59878e+001 -1.79896e+001,-1.10233e+001 -3.09881e+001,-2.79987e+001 -3.89954e+001,-5.00187e+001 -8.00726e+000,-2.29808e+001 -1.29985e+001,-5.59974e+001 -1.29985e+001,-9.89964e+001l0 -2.59996e+002 -1.37004e+002 0 0 716.009 137.004 0z" id="glyph4"/>
   <glyph unicode="l" horiz-adv-x="277" d="M72.012 0l0 716.009 136.978 0 0 -7.16009e+002 -1.36978e+002 0z" id="glyph5"/>
   <glyph unicode="o" horiz-adv-x="610" d="M40.0096 266.989c0,45.0008 10.9966,89.014 33.9775,132.013 22.02,42.999 54.0223,75.0013 95.0195,98.0089 40.9972,21.9933 86.9855,32.9899 137.992,32.9899 79.005,0 143.01,-2.50093e+001 193.002,-7.59889e+001 49.992,-5.10062e+001 75.0013,-1.15011e+002 75.0013,-1.93002e+002 0,-7.9005e+001 -2.50093e+001,-1.43997e+002 -7.59889e+001,-1.95003e+002 -5.00187e+001,-5.19938e+001 -1.14023e+002,-7.80174e+001 -1.91e+002,-7.80174e+001 -4.70026e+001,0 -9.30177e+001,11.0233 -1.36017e+002,33.0166 -4.2999e+001,21.0057 -7.59889e+001,51.9938 -9.80089e+001,94.0052 -2.29808e+001,40.9972 -3.39775e+001,91.9767 -3.39775e+001,151.978zm140.981 -7.98057e+000c0,-5.10062e+001 12.0109,-9.10159e+001 36.006,-1.18e+002 25.0093,-2.70112e+001 55.0099,-4.09972e+001 91.0159,-4.09972e+001 34.9917,0 64.9923,13.986 89.9749,40.9972 24.0218,26.9845 36.006,66.9941 36.006,118.988 0,51.0062 -1.19842e+001,90.0016 -3.6006e+001,117.013 -2.49827e+001,27.9987 -5.49832e+001,40.9972 -8.99749e+001,40.9972 -3.6006e+001,0 -6.60065e+001,-1.29985e+001 -9.10159e+001,-4.09972e+001 -2.39951e+001,-2.70112e+001 -3.6006e+001,-6.60065e+001 -3.6006e+001,-1.18e+002z" id="glyph6"/>
   <glyph unicode="r" horiz-adv-x="389" d="M203.011 0l-1.37004e+002 0 0 519.004 126.995 0 0 -7.40138e+001c21.9933,35.0184 42.0114,57.9993 58.9868,69.0226 18.0163,10.9966 37.0202,15.9878 60.0011,15.9878 31.0148,0 61.0153,-8.00726e+000 90.0016,-2.59969e+001l-4.2999e+001 -1.19015e+002c-2.29808e+001,15.0003 -4.39865e+001,22.02 -6.40047e+001,22.02 -1.89772e+001,0 -3.59793e+001,-5.01788e+000 -4.89777e+001,-1.60145e+001 -1.29985e+001,-9.98238e+000 -2.40218e+001,-2.89863e+001 -3.10148e+001,-5.6985e+001 -8.00726e+000,-2.79987e+001 -1.19842e+001,-8.5998e+001 -1.19842e+001,-1.73998e+002l0 -1.60012e+002z" id="glyph7"/>
   <glyph unicode="s" horiz-adv-x="556" d="M23.0075 148.001l137.992 21.0057c6.00544,-2.70112e+001 17.9896,-4.70026e+001 36.006,-6.10153e+001 17.9896,-1.3986e+001 42.999,-2.0979e+001 75.0013,-2.0979e+001 34.9917,0 62.0029,6.99301 79.9925,19.9915 12.0109,8.99482 17.9896,21.0057 17.9896,36.9935 0,10.0091 -2.98938e+000,19.0039 -9.98238e+000,25.0093 -6.00544e+000,6.99301 -2.19933e+001,12.9985 -4.60151e+001,19.0039 -1.09993e+002,23.9951 -1.80003e+002,45.9884 -2.10004e+002,65.9798 -4.09972e+001,27.9987 -6.19762e+001,67.0208 -6.19762e+001,117.013 0,45.0008 17.9896,83.0086 53.9956,113.009 34.9917,30.9881 90.0016,45.9884 165.003,45.9884 70.9977,0 122.992,-1.09966e+001 157.983,-3.40042e+001 34.0042,-2.39951e+001 57.9993,-5.79993e+001 70.9977,-1.03e+002l-1.28997e+002 -2.39951e+001c-6.00544e+000,19.9915 -1.59878e+001,36.006 -3.20023e+001,47.0026 -1.50003e+001,10.0091 -3.69935e+001,15.9878 -6.59798e+001,15.9878 -3.6006e+001,0 -6.20029e+001,-4.99119e+000 -7.70031e+001,-1.50003e+001 -1.09966e+001,-7.98057e+000 -1.60145e+001,-1.70021e+001 -1.60145e+001,-2.79987e+001 0,-9.98238e+000 4.00363,-1.79896e+001 14.0127,-2.49827e+001 11.9842,-9.02151e+000 54.9832,-2.202e+001 127.983,-3.9022e+001 72.9995,-1.59878e+001 124.006,-3.69935e+001 153.019,-6.09886e+001 27.9987,-2.39951e+001 42.999,-5.79993e+001 42.999,-1.02012e+002 0,-4.69759e+001 -2.00181e+001,-8.79998e+001 -6.00011e+001,-1.21977e+002 -3.89954e+001,-3.50184e+001 -9.80089e+001,-5.20205e+001 -1.76e+002,-5.20205e+001 -7.09977e+001,0 -1.26995e+002,15.0003 -1.68019e+002,42.999 -4.09972e+001,29.013 -6.79816e+001,68.0083 -8.09801e+001,117.013z" id="glyph8"/>
   <glyph unicode="t" horiz-adv-x="332" d="M309.988 519.004l0 -1.09993e+002 -9.39785e+001 0 0 -2.09016e+002c0,-4.19847e+001 0.987562,-6.69941e+001 2.98938,-7.39871e+001 1.01425,-7.0197e+000 4.99119,-1.29985e+001 12.0109,-1.70021e+001 5.97875,-5.01788e+000 13.986,-6.99301e+000 22.9808,-6.99301e+000 12.9985,0 31.0148,3.97694 55.0099,12.9985l12.0109 -1.06016e+002c-3.20023e+001,-1.3986e+001 -6.80083e+001,-2.10057e+001 -1.09005e+002,-2.10057e+001 -2.39951e+001,0 -4.70026e+001,4.00363 -6.60065e+001,12.9985 -1.99915e+001,8.00726 -3.49917e+001,19.0039 -4.39865e+001,32.0023 -9.02151e+000,12.9985 -1.60145e+001,31.0148 -1.90039e+001,53.0081 -3.01607e+000,16.0145 -5.01788e+000,49.0044 -5.01788e+000,96.9946l0 226.018 -6.29904e+001 0 0 109.993 62.9904 0 0 103 138.018 79.9925 0 -1.82993e+002 93.9785 0z" id="glyph9"/>
   <glyph unicode="w" horiz-adv-x="777" d="M167.992 0l-1.63989e+002 519.004 133.988 0 97.0213 -3.40015e+002 88.9873 340.015 133.001 0 85.998 -3.40015e+002 98.9964 340.015 135.002 0 -1.6599e+002 -5.19004e+002 -1.32013e+002 0 -8.89873e+001 332.995 -8.79998e+001 -3.32995e+002 -1.34015e+002 0z" id="glyph10"/>
  </font>
  <font id="FontID2" horiz-adv-x="650" font-variant="normal" style="fill-rule:nonzero" font-weight="500">
	<font-face font-family="YuGothic Medium" id="font-face10">
		<font-face-src>
			<font-face-name name="YuGothic Medium"/>
		</font-face-src>
	</font-face>
   <missing-glyph id="missing-glyph10"><path d="M0 0z" id="path10"/></missing-glyph>
   <glyph unicode="C" horiz-adv-x="683" d="M636.006 556.997c-3.30068e+001,132.007 -1.27009e+002,210.996 -2.66014e+002,210.996 -1.7599e+002,0 -3.07997e+002,-1.39984e+002 -3.07997e+002,-3.82987e+002 0,-2.42003e+002 131.008,-3.81008e+002 307.997,-3.81008e+002 135.006,0 229.008,62.9948 271.012,208.996l-8.30068e+001 28.0088c-2.59896e+001,-1.15994e+002 -8.90044e+001,-1.64994e+002 -1.87005e+002,-1.64994e+002 -1.2399e+002,0 -2.16993e+002,107.997 -2.16993e+002,309.996 0,202.999 92.0032,309.996 216.993,309.996 92.0032,0 154.018,-5.39984e+001 179.008,-1.61995e+002l86.0056 22.9908z" id="glyph11"/>
   <glyph unicode="I" horiz-adv-x="296" d="M192.004 754.999l-8.69996e+001 0 0 -7.37003e+002 86.9996 0 0 737.003z" id="glyph12"/>
   <glyph unicode="a" horiz-adv-x="553" d="M154.998 383.007c16.9932,63.9944 62.9948,97.0012 124.01,97.0012 76.9892,0 107.997,-3.20072e+001 107.997,-1.14014e+002l0 -2.69892e+001c-5.79968e+001,-2.9988e+000 -1.14014e+002,-7.9968e+000 -1.59996e+002,-1.60136e+001 -1.18013e+002,-2.09916e+001 -1.68013e+002,-8.09876e+001 -1.68013e+002,-1.67993e+002 0,-8.90044e+001 57.9968,-1.49e+002 156.997,-1.49e+002 70.012,0 132.007,30.008 175.01,93.0028 2.9988,-3.5006e+001 5.9976,-5.79968e+001 10.9956,-8.10076e+001l74.0104 0c-5.01799e+000,38.0048 -1.0016e+001,93.0028 -1.0016e+001,166.014l0 186.985c0,116.014 -6.19952e+001,170.012 -1.84986e+002,170.012 -1.01999e+002,0 -1.7501e+002,-4.5002e+001 -2.02999e+002,-1.34006e+002l76.9892 -2.39904e+001zm232.007 -2.15014e+002c-4.10036e+001,-6.79928e+001 -9.60016e+001,-1.01e+002 -1.51e+002,-1.01e+002 -6.30148e+001,0 -9.80008e+001,36.0056 -9.80008e+001,92.0032 0,56.9972 31.9872,92.0032 106.997,107.997 39.0044,8.01679 87.0052,15.014 142.003,16.0136l0 -1.15014e+002z" id="glyph13"/>
   <glyph unicode="c" horiz-adv-x="518" d="M474.996 389.004c-2.59991e+001,99.9992 -9.69928e+001,151.997 -1.94993e+002,151.997 -1.32003e+002,0 -2.20002e+002,-1.03006e+002 -2.20002e+002,-2.69002e+002 0,-1.65996e+002 85.001,-2.66004e+002 220.002,-2.66004e+002 101.998,0 169.994,53.0059 198,151.006l-7.70064e+001 24.0005c-1.49982e+001,-7.49994e+001 -5.29975e+001,-1.11999e+002 -1.19994e+002,-1.11999e+002 -8.5001e+001,0 -1.37999e+002,73.0007 -1.37999e+002,204.995 0,131.003 52.9975,203.005 137.999,203.005 56.9948,0 98.9998,-3.50014e+001 113.998,-1.09001e+002l79.996 21.0025z" id="glyph14"/>
   <glyph unicode="d" horiz-adv-x="577" d="M487.005 767.993l-8.10076e+001 0 0 -3.13994e+002c-3.5006e+001,54.998 -8.80048e+001,87.0052 -1.49e+002,87.0052 -1.10996e+002,0 -1.97001e+002,-9.5002e+001 -1.97001e+002,-2.67013e+002 0,-1.68992e+002 87.0052,-2.68992e+002 199,-2.68992e+002 62.9948,0 112.995,29.0084 149,88.0048l0 -7.501e+001 79.0084 0 0 750zm-8.10076e+001 -6.01e+002c-3.40064e+001,-6.39944e+001 -7.59896e+001,-9.5002e+001 -1.2599e+002,-9.5002e+001 -7.60096e+001,0 -1.37005e+002,68.0128 -1.37005e+002,201 0,133.007 57.9968,200 133.007,200 50.9996,0 96.9812,-3.09876e+001 129.988,-9.79808e+001l0 -2.08017e+002z" id="glyph15"/>
   <glyph unicode="e" horiz-adv-x="554" d="M497.001 261.995l0 18.0128c0,163.994 -9.10036e+001,260.996 -2.15994e+002,260.996 -1.27009e+002,0 -2.21012e+002,-1.05998e+002 -2.21012e+002,-2.69012e+002 0,-1.65994e+002 90.004,-2.65994e+002 228.009,-2.65994e+002 106.997,0 172.991,48.0008 205.998,140.004l-7.501e+001 24.99c-1.9992e+001,-7.19912e+001 -6.09956e+001,-1.03998e+002 -1.29988e+002,-1.03998e+002 -9.10036e+001,0 -150,70.012 -150,195.002l357.997 0zm-3.55998e+002 57.9968c6.9972,97.0012 61.9952,159.016 141.004,159.016 77.9888,0 127.989,-5.60176e+001 135.986,-1.59016e+002l-2.76989e+002 0z" id="glyph16"/>
   <glyph unicode="f" horiz-adv-x="343" d="M329.003 763.002c-2.49998e+001,2.99796 -4.80009e+001,4.9966 -6.80041e+001,4.9966 -9.09969e+001,0 -1.39997e+002,-4.60023e+001 -1.39997e+002,-1.38998e+002l0 -9.99992e+001 -8.99976e+001 0 0 -6.29991e+001 89.9976 0 0 -4.48006e+002 79.996 0 0 448.006 114.006 0 0 62.9991 -1.14006e+002 0 0 97.0012c0,56.9948 22.0018,79.996 74.0001,79.996 12.9996,0 28.0061,-1.99864e+000 44.0037,-3.99728e+000l10.0016 61.0005z" id="glyph17"/>
   <glyph unicode="g" horiz-adv-x="546" d="M509.997 593c-6.99944e+001,0 -1.10001e+002,-2.30012e+001 -1.46001e+002,-7.79973e+001 -2.79977e+001,15.9975 -6.39985e+001,24.9998 -1.00998e+002,24.9998 -1.05995e+002,0 -1.88997e+002,-6.80041e+001 -1.88997e+002,-1.66005e+002 0,-5.39969e+001 24.9998,-1.00998e+002 68.0041,-1.29996e+002 -5.0008e+001,-3.20034e+001 -7.40001e+001,-6.60055e+001 -7.40001e+001,-1.01998e+002 0,-3.80077e+001 23.9921,-6.40069e+001 75.9987,-7.60071e+001 -6.40069e+001,-2.09941e+001 -1.01007e+002,-6.00012e+001 -1.01007e+002,-1.05995e+002 0,-7.40001e+001 81.0037,-1.23e+002 225.007,-1.23e+002 160,0 242.994,63.9985 242.994,145.002 0,66.9964 -3.79993e+001,111 -1.73e+002,124l-1.02997e+002 9.9932c-8.2003e+001,9.00228 -9.50026e+001,22.0018 -9.50026e+001,49.0003 0,18.0046 16.0059,40.0064 46.0023,57.0032 23.0012,-1.00016e+001 50.9989,-1.49982e+001 76.998,-1.49982e+001 111,0 189.006,64.9978 189.006,166.996 0,44.0037 -1.80046e+001,84.0016 -4.99996e+001,111.999 26.9984,25.9991 49.9996,37 101.998,37l5.99592 70.0028zm-2.47e+002 -1.08002e+002c61.9998,0 112.999,-4.19966e+001 112.999,-1.11999e+002 0,-6.99944e+001 -5.09989e+001,-1.11999e+002 -1.12999e+002,-1.11999e+002 -6.19998e+001,0 -1.12999e+002,42.005 -1.12999e+002,111.999 0,70.0028 50.9989,111.999 112.999,111.999zm59.0019 -4.44e+002c96.0019,-9.9932e+000 115.997,-3.29943e+001 115.997,-6.89951e+001 0,-4.5003e+001 -5.69948e+001,-8.2003e+001 -1.66996e+002,-8.2003e+001 -9.30039e+001,0 -1.57002e+002,26.9984 -1.57002e+002,81.0037 0,36.0007 30.0048,64.9978 90.006,81.9946l117.995 -1.20002e+001z" id="glyph18"/>
   <glyph unicode="h" horiz-adv-x="580" d="M173 767.998l-8.10037e+001 0 0 -7.50002e+002 81.0037 0 0 350.005c46.0023,63.9985 100.998,100.998 148.999,100.998 55.0046,0 86.0003,-3.10041e+001 86.0003,-1.03996e+002l0 -3.47007e+002 83.0023 0 0 376.005c0,91.9962 -5.80025e+001,147.001 -1.42004e+002,147.001 -6.49978e+001,0 -1.26998e+002,-3.9998e+001 -1.75998e+002,-1.03006e+002l0 330.002z" id="glyph19"/>
   <glyph unicode="i" horiz-adv-x="265" d="M173.99 529.008l-8.19872e+001 0 0 -5.11016e+002 81.9872 0 0 511.016zm9.01639 197.001l-1.0e+002 0 0 -9.90004e+001 100 0 0 99.0004z" id="glyph20"/>
   <glyph unicode="l" horiz-adv-x="264" d="M172.991 767.993l-8.09876e+001 0 0 -750 80.9876 0 0 750z" id="glyph21"/>
   <glyph unicode="n" horiz-adv-x="580" d="M169.992 529.008l-7.79888e+001 0 0 -5.11016e+002 80.9876 0 0 350c46.0016,65.014 101,101 149,101 55.018,0 86.0056,-3.09876e+001 86.0056,-1.03998e+002l0 -3.47001e+002 83.0068 0 0 376.01c0,93.0028 -5.79968e+001,146.002 -1.42003e+002,146.002 -6.59936e+001,0 -1.29008e+002,-4.0004e+001 -1.79008e+002,-1.03998e+002l0 93.0028z" id="glyph22"/>
   <glyph unicode="o" horiz-adv-x="558" d="M280.008 540.004c-1.30008e+002,0 -2.20012e+002,-1.03998e+002 -2.20012e+002,-2.69012e+002 0,-1.63994e+002 89.0044,-2.65994e+002 219.012,-2.65994e+002 129.988,0 219.992,103.998 219.992,268.992 0,165.014 -9.10036e+001,266.014 -2.18992e+002,266.014zm0 -6.29948e+001c84.986,0 135.986,-7.30108e+001 135.986,-2.04018e+002 0,-1.32987e+002 -5.19992e+001,-2.04998e+002 -1.36985e+002,-2.04998e+002 -8.5006e+001,0 -1.36006e+002,73.0108 -1.36006e+002,204.998 0,131.008 50.9996,204.018 137.005,204.018z" id="glyph23"/>
   <glyph unicode="p" horiz-adv-x="578" d="M169.992 529.008l-7.79888e+001 0 0 -6.92003e+002 80.9876 0 0 257.997c34.0064,-5.9996e+001 78.0088,-8.90044e+001 143.003,-8.90044e+001 112.015,0 201.999,99.0004 201.999,269.012 0,169.992 -8.39864e+001,264.994 -1.97001e+002,264.994 -5.79968e+001,0 -1.13994e+002,-3.20072e+001 -1.51e+002,-9.10036e+001l0 80.008zm2.9988 -1.52999e+002c34.0064,66.9932 81.0076,97.9808 132.007,97.9808 74.0104,0 130.008,-6.79928e+001 130.008,-2.01e+002 0,-1.32987e+002 -5.9996e+001,-2.01e+002 -1.36006e+002,-2.01e+002 -5.09996e+001,0 -9.20032e+001,30.008 -1.2601e+002,95.002l0 209.016z" id="glyph24"/>
   <glyph unicode="r" horiz-adv-x="365" d="M336.006 540.004c-6.70132e+001,0 -1.28009e+002,-4.30028e+001 -1.66014e+002,-1.41004e+002l0 130.008 -7.79888e+001 0 0 -5.11016e+002 80.9876 0 0 293.003c32.0072,100 94.0024,150 157.017,150l5.9976 79.0084z" id="glyph25"/>
   <glyph unicode="s" horiz-adv-x="506" d="M436.997 418.001c-2.89971e+001,79.996 -9.19962e+001,123 -1.87998e+002,123 -1.21002e+002,0 -1.80994e+002,-6.10005e+001 -1.80994e+002,-1.38998e+002 0,-7.9005e+001 34.993,-1.19003e+002 149.999,-1.48e+002l40.9973 -9.00228e+000c93.0039,-2.40005e+001 111.999,-4.09973e+001 111.999,-9.50026e+001 0,-4.49946e+001 -3.20034e+001,-8.40016e+001 -1.15997e+002,-8.40016e+001 -5.70032e+001,0 -1.05004e+002,27.0068 -1.26007e+002,92.0046l-7.89966e+001 -2.79977e+001c31.0041,-8.40016e+001 102.997,-1.24008e+002 202.996,-1.24008e+002 133.002,0 197,66.0055 197,152.006 0,84.0016 -4.29959e+001,123 -1.6e+002,150.998l-4.09973e+001 10.0016c-8.30023e+001,19.9948 -1.04996e+002,39.998 -1.04996e+002,88.9982 0,43.0043 37.9993,73.0007 103.996,73.0007 55.0046,0 94.0032,-2.99964e+001 111,-8.79989e+001l77.9973 24.9998z" id="glyph26"/>
   <glyph unicode="t" horiz-adv-x="350" d="M196.002 705.998l-8.0008e+001 -1.79928e+001 0 -1.58996e+002 -8.29868e+001 0 0 -6.30148e+001 82.9868 0 0 -3.29988e+002c0,-8.80048e+001 46.0016,-1.30008e+002 132.007,-1.30008e+002 28.0088,0 50.9996,0.9996 79.0084,4.998l3.9984 62.9948c-2.30108e+001,-4.998e+000 -4.20032e+001,-5.9976e+000 -6.40144e+001,-5.9976e+000 -4.60016e+001,0 -7.09916e+001,26.0096 -7.09916e+001,83.0068l0 314.994 121.991 0 0 63.0148 -1.21991e+002 0 0 176.989z" id="glyph27"/>
   <glyph unicode="u" horiz-adv-x="580" d="M488.005 529.008l-8.10076e+001 0 0 -3.49e+002c-3.5006e+001,-6.10156e+001 -9.5002e+001,-1.02999e+002 -1.47001e+002,-1.02999e+002 -5.4998e+001,0 -8.80048e+001,28.9884 -8.80048e+001,99.0004l0 352.999 -8.29868e+001 0 0 -3.78009e+002c0,-9.60016e+001 62.9948,-1.45002e+002 143.003,-1.45002e+002 69.992,0 136.985,41.0036 177.989,105.998l0 -9.40024e+001 78.0088 0 0 511.016z" id="glyph28"/>
   <glyph unicode="v" horiz-adv-x="489" d="M458.998 529.001l-8.19946e+001 0 -7.80057e+001 -2.77005e+002c-1.69968e+001,-5.89935e+001 -2.79977e+001,-1.09992e+002 -4.49946e+001,-1.67995e+002l-1.50066e+001 0c-1.49982e+001,58.0025 -2.69984e+001,106.994 -4.29959e+001,164.997l-7.79973e+001 280.003 -8.80073e+001 0 164.006 -5.11005e+002 100.998 0 163.998 511.005z" id="glyph29"/>
   <glyph unicode="y" horiz-adv-x="488" d="M459.003 529.002l-8.30063e+001 0 -8.79983e+001 -2.87998e+002c-1.29931e+001,-4.30008e+001 -2.40033e+001,-8.40047e+001 -3.59981e+001,-1.27005e+002l-9.99792e+000 0c-1.20086e+001,43.9992 -2.20065e+001,82.0079 -3.49997e+001,124.995l-9.0009e+001 290.009 -8.69999e+001 0 177.009 -5.01005e+002 -8.00111e+000 -2.40033e+001c-2.40033e+001,-7.29945e+001 -6.09998e+001,-1.0199e+002 -1.15995e+002,-1.0199e+002 -1.60022e+001,0 -3.30028e+001,1.99681 -5.30125e+001,5.99043l5.00589 -6.69902e+001c17.999,-3.00908e+000 34.9997,-4.00749e+000 49.0051,-4.00749e+000 90.9936,0 148.998,42.0024 188.99,156.999l186.008 535.007z" id="glyph30"/>
  </font>
  <font id="FontID1" horiz-adv-x="667" font-variant="normal" style="fill-rule:nonzero" font-style="italic" font-weight="400">
	<font-face font-family="Arial" id="font-face30">
		<font-face-src>
			<font-face-name name="Arial Italic"/>
		</font-face-src>
	</font-face>
   <missing-glyph id="missing-glyph30"><path d="M0 0z" id="path30"/></missing-glyph>
   <glyph unicode="0" horiz-adv-x="556" d="M71.0138 234.983c0,60.019 8.99572,122.037 26.9871,184.008 17.9914,63.0176 37.9819,112.994 60.019,150.024 21.9895,37.9819 44.9786,66.9681 68.9672,88.0057 24.0362,20.99 47.0252,36.9824 70.0143,46.9776 22.9891,9.99524 48.9767,14.9929 77.0109,14.9929 53.9743,0 100,-2.099e+001 135.983,-6.0971e+001 36.9824,-4.10281e+001 55.0214,-100 55.0214,-1.77011e+002 0,-7.901e+001 -1.19943e+001,-1.5702e+002 -3.80295e+001,-2.34031e+002 -2.99857e+001,-9.19562e+001 -7.09662e+001,-1.60971e+002 -1.24988e+002,-2.06997e+002 -4.09805e+001,-3.49833e+001 -8.70062e+001,-5.19752e+001 -1.39981e+002,-5.19752e+001 -5.40219e+001,0 -9.90005e+001,20.99 -1.3603e+002,63.0176 -3.69824e+001,41.98 -5.49738e+001,102.999 -5.49738e+001,183.96zm85.0071 -2.29891e+001c0,-4.39791e+001 7.99619,-7.80105e+001 21.9895,-1.02999e+002 19.9905,-3.39838e+001 49.9762,-5.09757e+001 89.0052,-5.09757e+001 33.9838,0 64.9691,15.9924 93.0033,45.9781 39.981,43.9791 70.9662,107.996 91.0043,192.004 19.9905,84.0076 29.9857,152.975 29.9857,205.997 0,52.0228 -8.99572e+000,89.0052 -2.89862e+001,111.994 -2.00381e+001,22.9891 -4.60257e+001,33.9838 -7.80105e+001,33.9838 -2.29891e+001,0 -4.50262e+001,-5.99714e+000 -6.60162e+001,-1.79914e+001 -1.99905e+001,-1.19943e+001 -3.89814e+001,-3.29843e+001 -5.802e+001,-6.19705e+001 -2.59876e+001,-4.10281e+001 -4.89767e+001,-1.02999e+002 -6.89672e+001,-1.86007e+002 -1.59924e+001,-7.00143e+001 -2.49881e+001,-1.26987e+002 -2.49881e+001,-1.70014e+002z" id="glyph31"/>
   <glyph unicode="2" horiz-adv-x="556" d="M59.0195 0c8.99572,42.9795 20.99,78.0105 36.9824,106.997 16.9919,28.9862 37.9819,56.0209 65.0167,82.0086 25.9876,25.9876 77.9629,69.0148 153.974,129.986 46.0257,37.03 78.0105,64.0171 95.0024,82.0086 23.9886,24.9881 42.0276,50.0238 53.0224,75.0119 6.99667,15.9924 10.9948,33.9838 10.9948,53.9743 0,33.0319 -1.19943e+001,61.0186 -3.50309e+001,84.0076 -2.29891e+001,21.9895 -5.19752e+001,33.9838 -8.49595e+001,33.9838 -3.40314e+001,0 -6.30176e+001,-1.19943e+001 -8.80057e+001,-3.49833e+001 -2.50357e+001,-2.29891e+001 -4.30271e+001,-6.0971e+001 -5.40219e+001,-1.11994e+002l-8.70062e+001 12.9938c8.99572,63.0176 34.0314,112.994 74.0124,150.024 40.9805,35.9829 92.0038,54.9738 153.022,54.9738 40.9805,0 77.9629,-8.99572e+000 110.995,-2.59876e+001 32.9843,-1.69919e+001 57.9724,-3.9981e+001 73.9648,-7.10138e+001 17.0395,-3.09852e+001 25.0357,-6.19705e+001 25.0357,-9.50024e+001 0,-4.69776e+001 -1.70395e+001,-9.30033e+001 -5.10233e+001,-1.36982e+002 -2.099e+001,-2.69871e+001 -8.20086e+001,-8.1009e+001 -1.83008e+002,-1.61019e+002 -4.39791e+001,-3.49833e+001 -7.59638e+001,-6.297e+001 -9.8001e+001,-8.50071e+001 -2.099e+001,-2.29891e+001 -3.69824e+001,-4.29795e+001 -4.79772e+001,-6.297e+001l319.99 0 -1.69919e+001 -8.1009e+001 -4.25988e+002 0z" id="glyph32"/>
   <glyph unicode="4" horiz-adv-x="556" d="M299 0l37.9819 183.008 -2.92004e+002 0 19.0386 87.0062 401 445.978 71.9657 0 -9.50024e+001 -4.54974e+002 100 0 -1.59924e+001 -7.80105e+001 -100 0 -3.89814e+001 -1.83008e+002 -8.80057e+001 0zm55.0214 261.019l61.9705 299 -2.67016e+002 -2.99e+002 205.045 0z" id="glyph33"/>
   <glyph unicode="S" horiz-adv-x="667" d="M70.0143 230.985l94.0029 8.99572 -9.99524e-001 -2.49881e+001c0,-2.69871e+001 5.99714,-5.29748e+001 18.991,-7.60114e+001 12.9938,-2.29891e+001 33.9838,-3.9981e+001 62.97,-5.29748e+001 29.0338,-1.19943e+001 64.0171,-1.8991e+001 104.998,-1.8991e+001 57.0205,0 101.047,12.9938 131.033,37.9819 29.9857,24.9881 44.9786,54.0219 44.9786,86.0067 0,21.9895 -7.99619e+000,42.9795 -2.39886e+001,61.0186 -1.59924e+001,18.991 -6.10186e+001,42.9795 -1.32984e+002,74.9643 -5.70205e+001,24.0362 -9.50024e+001,43.0271 -1.15992e+002,56.0209 -3.20324e+001,20.99 -5.60209e+001,43.9791 -7.10138e+001,69.0148 -1.49929e+001,24.9881 -2.29891e+001,52.9748 -2.29891e+001,84.9595 0,37.03 9.99524,70.0143 29.9857,100 20.99,29.0338 49.9762,52.0228 89.0052,68.0152 38.9814,14.9929 83.0081,22.9891 131.985,22.9891 58.02,0 106.997,-9.99524e+000 147.025,-2.89862e+001 39.981,-1.99905e+001 68.9672,-4.59781e+001 86.9586,-7.80105e+001 18.039,-3.29843e+001 27.0347,-6.39695e+001 27.0347,-9.40029e+001 0,-2.99857e+000 0,-6.99667e+000 0,-1.39933e+001l-9.20038e+001 -7.99619e+000c0,20.99 -1.99905e+000,35.9829 -5.99714e+000,48.0248 -5.99714e+000,19.9905 -1.59924e+001,35.9829 -3.00333e+001,49.9762 -1.39933e+001,13.9933 -3.29843e+001,24.9881 -5.59733e+001,32.9843 -2.39886e+001,7.99619 -5.10233e+001,11.9943 -8.1009e+001,11.9943 -5.19752e+001,0 -9.20038e+001,-1.09948e+001 -1.2099e+002,-3.49833e+001 -2.19895e+001,-1.79914e+001 -3.39838e+001,-4.09805e+001 -3.39838e+001,-7.10138e+001 0,-1.79914e+001 4.99762,-3.29843e+001 13.9933,-4.69776e+001 8.99572,-1.39933e+001 25.9876,-2.79867e+001 48.9767,-4.09805e+001 16.9919,-9.04331e+000 58.02,-2.80343e+001 120.99,-5.60209e+001 51.0233,-2.29891e+001 87.0062,-4.09805e+001 106.997,-5.40219e+001 26.0352,-1.69919e+001 46.0257,-3.79819e+001 60.019,-6.297e+001 13.9933,-2.39886e+001 20.99,-5.20228e+001 20.99,-8.30081e+001 0,-3.89814e+001 -1.19943e+001,-7.50119e+001 -3.59829e+001,-1.06997e+002 -2.29891e+001,-3.29843e+001 -5.60209e+001,-5.802e+001 -9.8001e+001,-7.60114e+001 -4.10281e+001,-1.79914e+001 -8.90052e+001,-2.69871e+001 -1.43027e+002,-2.69871e+001 -8.09614e+001,0 -1.46978e+002,16.9919 -1.98001e+002,52.9748 -5.19752e+001,35.0309 -7.69634e+001,99.0005 -7.79629e+001,190.005z" id="glyph34"/>
   <glyph unicode="c" horiz-adv-x="499" d="M391.004 189.005l88.0057 -8.99572e+000c-2.19895e+001,-6.50167e+001 -5.30224e+001,-1.12994e+002 -9.40029e+001,-1.45026e+002 -4.10281e+001,-3.09852e+001 -8.70062e+001,-4.69776e+001 -1.39029e+002,-4.69776e+001 -5.69729e+001,0 -1.01999e+002,18.991 -1.36982e+002,54.9738 -3.49833e+001,36.0305 -5.29748e+001,87.0062 -5.29748e+001,153.022 0,56.0209 10.9948,111.994 33.9838,167.016 21.9895,53.9743 53.9743,96.0019 96.0019,124.988 41.98,27.9867 90.0048,41.98 143.979,41.98 55.0214,0 99.0005,-1.49929e+001 132.032,-4.69776e+001 31.9848,-3.09852e+001 48.9767,-7.30129e+001 48.9767,-1.24988e+002l-8.70062e+001 -4.99762e+000c0,31.9848 -9.99524e+000,57.9724 -2.89862e+001,76.9634 -1.79914e+001,17.9914 -4.29795e+001,28.0343 -7.40124e+001,28.0343 -3.49833e+001,0 -6.59686e+001,-1.20419e+001 -9.20038e+001,-3.40314e+001 -2.59876e+001,-2.29891e+001 -4.59781e+001,-5.69729e+001 -6.0971e+001,-1.01999e+002 -1.49929e+001,-4.59781e+001 -2.20371e+001,-9.00048e+001 -2.20371e+001,-1.32984e+002 0,-4.40267e+001 9.04331,-7.70109e+001 29.0338,-9.90005e+001 18.991,-2.19895e+001 42.9795,-3.29843e+001 71.9657,-3.29843e+001 29.0338,0 56.0209,10.9948 82.0086,31.9848 27.0347,21.9895 47.0252,54.9738 62.0181,100z" id="glyph35"/>
   <glyph unicode="e" horiz-adv-x="556" d="M413.993 176.011l86.0067 -8.99572e+000c-1.19943e+001,-4.20276e+001 -4.09805e+001,-8.30081e+001 -8.50071e+001,-1.21038e+002 -4.49786e+001,-3.89814e+001 -9.8001e+001,-5.79724e+001 -1.58972e+002,-5.79724e+001 -3.9029e+001,0 -7.40124e+001,8.99572 -1.06045e+002,26.9871 -3.19848e+001,17.9914 -5.59733e+001,43.0271 -7.29653e+001,77.0109 -1.69919e+001,33.9838 -2.49881e+001,73.0129 -2.49881e+001,115.992 0,57.0205 12.9938,111.994 38.9814,165.017 25.9876,52.9748 60.019,93.0033 101.999,117.991 41.98,25.9876 87.0062,38.9814 134.983,38.9814 62.0181,0 110.995,-1.8991e+001 148.025,-5.69729e+001 36.9824,-3.9029e+001 55.9733,-9.10043e+001 55.9733,-1.5802e+002 0,-2.49881e+001 -2.99857e+000,-5.09757e+001 -6.99667e+000,-7.80105e+001l-3.82009e+002 0c-9.99524e-001,-9.99524e+000 -1.99905e+000,-1.8991e+001 -1.99905e+000,-2.69871e+001 0,-4.89767e+001 11.0424,-8.60067e+001 34.0314,-1.10995e+002 21.9895,-2.59876e+001 48.9767,-3.79819e+001 81.009,-3.79819e+001 30.9852,0 59.9714,8.99572 89.9572,28.9862 29.0338,19.9905 52.0228,48.9767 68.0152,86.0067zm-2.56973e+002 128.986l290.957 0c0.999524,8.99572 0.999524,14.9929 0.999524,18.991 0,44.0267 -1.09948e+001,78.0105 -3.29843e+001,101.999 -2.29891e+001,23.9886 -5.09757e+001,35.0309 -8.60067e+001,35.0309 -3.79819e+001,0 -7.19657e+001,-1.30414e+001 -1.02999e+002,-3.9029e+001 -3.09852e+001,-2.59876e+001 -5.39743e+001,-6.49691e+001 -6.99667e+001,-1.16992e+002z" id="glyph36"/>
   <glyph unicode="i" horiz-adv-x="222" d="M159.02 615.992l20.99 100 88.0057 0 -2.10376e+001 -1.0e+002 -8.79581e+001 0zm-1.29034e+002 -6.15992e+002l107.996 518.991 89.0052 0 -1.08996e+002 -5.18991e+002 -8.80057e+001 0z" id="glyph37"/>
   <glyph unicode="n" horiz-adv-x="556" d="M32.9843 0l108.996 518.991 80.0095 0 -1.8991e+001 -9.10043e+001c33.9838,36.0305 67.0157,62.0181 97.0014,78.0105 30.9852,15.9924 61.0186,23.9886 93.0033,23.9886 41.98,0 75.0119,-1.09948e+001 99.0005,-3.39838e+001 23.9886,-2.29891e+001 35.9829,-5.30224e+001 35.9829,-9.10043e+001 0,-1.8991e+001 -3.9981e+000,-4.99762e+001 -1.29938e+001,-9.10043e+001l-6.60162e+001 -3.13993e+002 -8.79581e+001 0 68.9672 328.986c6.99667,32.0324 9.99524,55.0214 9.99524,70.0143 0,17.9914 -5.99714e+000,31.9848 -1.79914e+001,41.98 -1.19943e+001,11.0424 -2.89862e+001,17.0395 -5.09757e+001,17.0395 -4.60257e+001,0 -8.60067e+001,-1.70395e+001 -1.21038e+002,-4.90243e+001 -3.59829e+001,-3.29843e+001 -6.19705e+001,-8.90052e+001 -7.79629e+001,-1.68015e+002l-5.00238e+001 -2.4098e+002 -8.90052e+001 0z" id="glyph38"/>
  </font>
  <font id="FontID0" horiz-adv-x="667" font-variant="normal" style="fill-rule:nonzero" font-weight="400">
	<font-face font-family="Arial" id="font-face38">
		<font-face-src>
			<font-face-name name="Arial"/>
		</font-face-src>
	</font-face>
   <missing-glyph id="missing-glyph38"><path d="M0 0z" id="path38"/></missing-glyph>
   <glyph unicode="b" horiz-adv-x="556" d="M146.995 0l-8.20011e+001 0 0 715.986 88.0102 0 0 -2.55981e+002c36.9898,46.9955 85.0057,69.983 142.007,69.983 32.0011,0 62.9819,-5.98073e+000 90.9864,-1.89909e+001 28.0045,-1.30102e+001 52.0125,-3.10091e+001 70.0113,-5.39966e+001 18.9909,-2.29875e+001 32.9932,-5.20125e+001 43.9909,-8.40136e+001 10.0057,-3.29932e+001 14.9943,-6.79989e+001 14.9943,-1.05981e+002 0,-8.90023e+001 -2.19955e+001,-1.57001e+002 -6.59864e+001,-2.06009e+002 -4.40193e+001,-4.79875e+001 -9.60034e+001,-7.29875e+001 -1.58022e+002,-7.29875e+001 -6.09977e+001,0 -1.08985e+002,25.9921 -1.43991e+002,76.9841l0 -6.49943e+001zm-9.92063e-001 263.01c0,-6.20181e+001 7.9932,-1.07001e+002 25,-1.35006e+002 28.0045,-4.50113e+001 64.9943,-6.70068e+001 113.01,-6.70068e+001 37.9819,0 70.9751,16.0147 98.9796,50 28.0045,32.9932 42.0068,82.9932 42.0068,149.008 0,67.0068 -1.30102e+001,117.007 -3.99943e+001,150 -2.70125e+001,32.0011 -5.90136e+001,47.9875 -9.69955e+001,47.9875 -3.90023e+001,0 -7.20238e+001,-1.70068e+001 -100,-50 -2.80045e+001,-3.29932e+001 -4.20068e+001,-8.20011e+001 -4.20068e+001,-1.44983e+002z" id="glyph39"/>
   <glyph unicode="d" horiz-adv-x="556" d="M402.012 0l0 64.9943c-3.30215e+001,-5.09921e+001 -8.10091e+001,-7.69841e+001 -1.45011e+002,-7.69841e+001 -4.10147e+001,0 -7.89966e+001,11.9898 -1.14002e+002,33.9853 -3.39853e+001,23.0159 -6.09977e+001,55.017 -7.99887e+001,96.0034 -1.90193e+001,41.0147 -2.89966e+001,88.0102 -2.89966e+001,141.015 0,51.9841 8.98526,98.9796 25.9921,140.986 17.0068,42.0068 42.9989,74.0079 78.0045,96.9955 33.9853,21.9955 72.9875,32.9932 114.994,32.9932 32.0011,0 60.0057,-5.98073e+000 83.9853,-1.9983e+001 24.0079,-1.30102e+001 44.0193,-3.0017e+001 59.0136,-5.09921e+001l0 256.973 88.0102 0 0 -7.15986e+002 -8.20011e+001 0zm-2.77012e+002 259.014c0,-6.70068e+001 14.0023,-1.16015e+002 42.0068,-1.49008e+002 26.9841,-3.29932e+001 60.9977,-4.90079e+001 98.9796,-4.90079e+001 38.0102,0 71.0034,14.9943 98.0159,46.9955 25.9921,31.0091 39.9943,78.9966 39.9943,142.999 0,71.0034 -1.40023e+001,124.008 -4.09864e+001,157.001 -2.80045e+001,32.9932 -6.09977e+001,50 -1.0102e+002,50 -3.90023e+001,0 -7.19955e+001,-1.59864e+001 -9.79875e+001,-4.79875e+001 -2.59921e+001,-3.20011e+001 -3.90023e+001,-8.29932e+001 -3.90023e+001,-1.50992e+002z" id="glyph40"/>
   <glyph unicode="e" horiz-adv-x="556" d="M421.003 167.007l90.9864 -1.09977e+001c-1.49943e+001,-5.30045e+001 -4.09864e+001,-9.40193e+001 -7.99887e+001,-1.24008e+002 -3.90023e+001,-2.89966e+001 -8.80102e+001,-4.39909e+001 -1.47988e+002,-4.39909e+001 -7.60204e+001,0 -1.36026e+002,23.9796 -1.81009e+002,69.983 -4.39909e+001,46.9955 -6.60147e+001,113.01 -6.60147e+001,196.995 0,87.0181 22.0238,155.017 67.0068,203.005 45.0113,48.0159 103.005,71.9955 175,71.9955 68.9909,0 125.992,-2.29875e+001 170.011,-7.09751e+001 43.9909,-4.70238e+001 65.9864,-1.1301e+002 65.9864,-1.99008e+002 0,-5.01701e+000 -9.92063e-001,-1.30102e+001 -9.92063e-001,-2.30159e+001l-3.8699e+002 0c3.9966,-5.70011e+001 19.983,-1.00992e+002 48.9796,-1.30981e+002 28.9966,-3.0017e+001 64.9943,-4.50113e+001 108.022,-4.50113e+001 31.9728,0 59.9773,7.9932 82.9932,25 21.9955,17.0068 40.9864,43.9909 53.9966,81.0091zm-2.89002e+002 142.007l289.994 0c-3.9966e+000,43.9909 -1.49943e+001,75.9921 -3.29932e+001,97.9875 -2.80045e+001,33.9853 -6.49943e+001,50.9921 -1.09014e+002,50.9921 -4.09864e+001,0 -75,-1.40023e+001 -1.01984e+002,-4.09864e+001 -2.80045e+001,-2.70125e+001 -4.29989e+001,-6.30102e+001 -4.60034e+001,-1.07993e+002z" id="glyph41"/>
   <glyph unicode="o" horiz-adv-x="556" d="M32.9932 259.014c0,95.9751 27.0125,166.978 80.017,213.974 44.983,38.0102 98.9796,57.0011 162.982,57.0011 71.9955,0 130.017,-2.29875e+001 175,-6.9983e+001 45.0113,-4.69955e+001 67.9989,-1.10998e+002 67.9989,-1.92999e+002 0,-6.70068e+001 -9.97732e+000,-1.20011e+002 -2.99887e+001,-1.57993e+002 -2.00113e+001,-3.80102e+001 -4.90079e+001,-6.80272e+001 -8.69898e+001,-8.90023e+001 -3.90023e+001,-2.10034e+001 -8.0017e+001,-3.20011e+001 -1.2602e+002,-3.20011e+001 -7.19955e+001,0 -1.30981e+002,23.9796 -1.75992e+002,69.983 -4.39909e+001,46.9955 -6.70068e+001,114.002 -6.70068e+001,201.02zm91.0147 0c0,-6.60147e+001 14.0023,-1.16015e+002 42.9989,-1.49008e+002 28.9966,-3.29932e+001 64.9943,-4.90079e+001 108.985,-4.90079e+001 44.0193,0 80.017,16.0147 109.014,49.0079 28.9966,33.9853 43.9909,83.9853 43.9909,151.984 0,64.0023 -1.49943e+001,113.01 -4.39909e+001,146.003 -2.89966e+001,32.9932 -6.49943e+001,50 -1.09014e+002,50 -4.39909e+001,0 -7.99887e+001,-1.70068e+001 -1.08985e+002,-50 -2.89966e+001,-3.29932e+001 -4.29989e+001,-8.20011e+001 -4.29989e+001,-1.4898e+002z" id="glyph42"/>
   <glyph unicode="p" horiz-adv-x="556" d="M65.9864 -1.99008e+002l0 717.999 80.017 0 0 -6.79989e+001c18.9909,27.0125 39.9943,46.0034 64.0023,59.0136 24.0079,14.0023 53.0045,19.983 85.9977,19.983 44.983,0 83.9853,-1.09977e+001 117.999,-3.39853e+001 32.9932,-2.30159e+001 58.9853,-5.5017e+001 75.9921,-9.60034e+001 17.0068,-4.20068e+001 25.9921,-8.69898e+001 25.9921,-1.3699e+002 0,-5.30045e+001 -8.98526e+000,-1.0102e+002 -2.79762e+001,-1.42999e+002 -1.90193e+001,-4.29989e+001 -4.70238e+001,-7.5e+001 -8.30215e+001,-9.80159e+001 -3.69898e+001,-2.19955e+001 -7.5e+001,-3.39853e+001 -1.14994e+002,-3.39853e+001 -2.89966e+001,0 -5.59807e+001,5.98073 -7.89966e+001,18.9909 -2.29875e+001,11.9898 -4.20068e+001,28.0045 -5.70011e+001,46.9955l0 -2.53005e+002 -8.80102e+001 0zm80.017 455.017c0,-6.60147e+001 13.0102,-1.16015e+002 39.9943,-1.48016e+002 27.0125,-3.20011e+001 60.0057,-4.69955e+001 98.0159,-4.69955e+001 38.9739,0 72.9875,16.0147 100.992,49.0079 26.9841,32.9932 40.9864,83.9853 40.9864,153.997 0,65.9864 -1.29819e+001,114.994 -4.09864e+001,147.988 -2.70125e+001,33.0215 -5.90136e+001,49.0079 -9.69955e+001,49.0079 -3.70181e+001,0 -7.00113e+001,-1.70068e+001 -9.90079e+001,-5.19841e+001 -2.89966e+001,-3.50057e+001 -4.29989e+001,-8.60261e+001 -4.29989e+001,-1.53005e+002z" id="glyph43"/>
   <glyph unicode="r" horiz-adv-x="332" d="M64.9943 0l0 518.991 78.9966 0 0 -7.89966e+001c20.0113,37.0181 39.0023,60.9977 56.0091,73.0159 17.0068,10.9977 35.9977,16.9785 56.0091,16.9785 29.9887,0 59.9773,-8.98526e+000 90.9864,-2.79762e+001l-3.10091e+001 -8.20011e+001c-2.09751e+001,12.9819 -4.29989e+001,18.9909 -6.39739e+001,18.9909 -1.90193e+001,0 -3.70181e+001,-4.98866e+000 -5.20125e+001,-1.70068e+001 -1.49943e+001,-1.09977e+001 -2.59921e+001,-2.69841e+001 -3.29932e+001,-4.79875e+001 -9.01361e+000,-3.10091e+001 -1.40023e+001,-6.49943e+001 -1.40023e+001,-1.03005e+002l0 -2.71003e+002 -8.80102e+001 0z" id="glyph44"/>
   <glyph unicode="w" horiz-adv-x="722" d="M161.99 0l-1.58985e+002 518.991 90.9864 0 82.0011 -300 31.0091 -1.10998e+002c0.992063,5.01701 10.0057,41.0147 27.0125,107.001l81.9728 303.997 91.0147 0 77.0125 -3.00992e+002 25.9921 -9.90079e+001 29.9887 100 89.0023 300 85.0057 0 -1.6199e+002 -5.18991e+002 -9.10147e+001 0 -8.29932e+001 310.998 -2.00113e+001 88.0102 -1.04989e+002 -3.99008e+002 -9.10147e+001 0z" id="glyph45"/>
   <glyph unicode="y" horiz-adv-x="500" d="M61.9898 -200l-9.97732e+000 82.9932c18.9909,-4.98866e+000 35.9977,-7.9932e+000 50.9921,-7.9932e+000 18.9909,0 35.0057,3.00454 46.0034,10.0057 11.9898,5.98073 21.9955,14.9943 28.9966,26.9841 6.00907,9.01361 14.9943,31.0091 26.9841,66.0147 2.01247,3.9966 4.02494,11.9898 8.02154,21.0034l-1.97024e+002 519.983 95.0113 0 107.993 -3.00992e+002c14.0023,-3.80102e+001 26.0204,-7.80045e+001 37.0181,-1.20011e+002 9.97732,41.0147 21.9955,80.017 35.9977,117.999l110.998 303.005 87.9819 0 -1.96995e+002 -5.28005e+002c-2.10034e+001,-5.69728e+001 -3.79819e+001,-9.59751e+001 -4.89796e+001,-1.16978e+002 -1.60147e+001,-2.89966e+001 -3.40136e+001,-5.10204e+001 -5.40249e+001,-6.40023e+001 -1.9983e+001,-1.40023e+001 -4.39909e+001,-2.00113e+001 -7.19955e+001,-2.00113e+001 -1.69785e+001,0 -3.59977e+001,3.00454 -5.70011e+001,10.0057z" id="glyph46"/>
  </font>
</defs>
</svg>
